(Eurodance) Sirius - This Is My Life (Remix) (CDM) - 1994, FLAC (image+.cue), lossless

Страницы:  1

Ответить
Автор
Сообщение

mitja76

Top Seed 04* 320r

Стаж: 11 лет 11 месяцев

Сообщений: 718

mitja76 · 16-Сен-12 12:13 (6 лет 9 месяцев назад)

Sirius - This Is My Life (Remix) (CDM)
Жанр: Eurodance
Страна-производитель диска: Germany
Год издания: 1994
Издатель (лейбл): Dance Pool
Номер по каталогу: DAN 660381 5
Аудиокодек: FLAC (*.flac)
Тип рипа: image+.cue
Битрейт аудио: lossless
Продолжительность: 00:22:12
Источник (релизер): собственный рип
Наличие сканов в содержимом раздачи: да
Треклист:
1 This Is My Life (Radio / Video Version) 3:46
2 This Is My Life (Euroworld Mix) 5:22
3 This Is My Life (Raver's Universe) 5:48
4 This Is My Life (News Flash Mix) 7:15

Лог создания рипа
Exact Audio Copy V1.0 beta 3 from 29. August 2011
Отчёт EAC об извлечении, выполненном 15. сентября 2012, 16:36
Sirius / This Is My Life (Remix)
Дисковод: ARTEC WRA-WA48 Adapter: 1 ID: 1
Режим чтения : Достоверность
Использование точного потока : Да
Отключение кэша аудио : Да
Использование указателей C2 : Нет
Коррекция смещения при чтении : 97
Способность читать области Lead-in и Lead-out : Нет
Заполнение пропущенных сэмплов тишиной : Да
Удаление блоков с тишиной в начале и конце : Нет
При вычислениях CRC использовались нулевые сэмплы : Да
Интерфейс : Встроенный Win32-интерфейс для Win NT/2000
Выходной формат : Пользовательский кодировщик
Выбранный битрейт : 896 kBit/s
Качество : Высокий
Добавление ID3-тега : Нет
Утилита сжатия : C:\Programme\Exact Audio Copy\Flac\flac.exe
Дополнительные параметры : -V -8 -T "Date=%year%" -T "Genre=%genre%" %source%
TOC извлечённого CD
Трек | Старт | Длительность | Начальный сектор | Конечный сектор
---------------------------------------------------------------------
1 | 0:00.00 | 3:46.00 | 0 | 16949
2 | 3:46.00 | 5:22.00 | 16950 | 41099
3 | 9:08.00 | 5:48.25 | 41100 | 67224
4 | 14:56.25 | 7:15.60 | 67225 | 99909
Характеристики диапазона извлечения и сообщения об ошибках
Выбранный диапазон
Имя файла F:\Downloads\Sirius ‎- This Is My Life (Remix) (CDM-1994-Flac)\Sirius - This Is My Life (Remix).wav
Пиковый уровень 98.5 %
Скорость извлечения 2.7 X
Качество диапазона 100.0 %
CRC теста 3F8034FC
CRC копии 3F8034FC
Копирование... OK
Ошибок не произошло
AccurateRip: сводка
Трек 1 отсутствует в базе данных
Трек 2 отсутствует в базе данных
Трек 3 отсутствует в базе данных
Трек 4 отсутствует в базе данных
Ни одного трека нет в базе AccurateRip
Конец отчёта
==== Контрольная сумма отчёта F55FE9AEA17D2C3A18CE59622460C7DCCDB0192100399879D94955956489363D ====

Доп. информация: Рип мой,с оригинального диска из моей коллекции.Сканы обложки и диска внутри торрeнта (600 dpi,PNG).Приятного прослушивания!
Download
Для скачивания .torrent файлов необходима регистрация
Сайт не распространяет и не хранит электронные версии произведений, а лишь предоставляет доступ к создаваемому пользователями каталогу ссылок на торрент-файлы, которые содержат только списки хеш-сумм
[Профиль]  [ЛС] 

DRIVEMASTER

Стаж: 10 лет 11 месяцев

Сообщений: 28

DRIVEMASTER · 17-Сен-12 12:05 (спустя 23 часа, ред. 17-Сен-12 12:05)


Как всегда, отличные раздачи. Спасибо.
[Профиль]  [ЛС] 

urkarus

Стаж: 9 лет 5 месяцев

Сообщений: 383

urkarus · 17-Сен-12 13:44 (спустя 1 час 39 мин.)

Eurodance это сила - Eurodance это драйв
Это наша любовь - Eurodance It's My Life
Это мощный напор чисто "конного" баса
Это ритмы фантазий - это море экстаза
В стороне отдыхают современные стили
Eurodance Eurodance - снова долбит в эфире
Eurodance это вещь - Eurodance это драйв
This Is My Love - This Is My Life
[Профиль]  [ЛС] 

djeugene

VIP (Заслуженный)

Стаж: 11 лет 7 месяцев

Сообщений: 2888

djeugene · 20-Сен-12 23:26 (спустя 3 дня)

mitja76
Спасибо за ремиксовый сингл :-)!
[Профиль]  [ЛС] 

RaveGenerator

Стаж: 9 лет 9 месяцев

Сообщений: 1651

RaveGenerator · 09-Дек-12 18:18 (спустя 2 месяца 18 дней)

Я думаю в данной раздаче, при оформление, можно было добавить это:
http://www.youtube.com/watch?v=byJPp8AUSf0
Но это моё ИМХО.
[Профиль]  [ЛС] 
 
Ответить
Loading...
Error