Reel Rock Film Tour 2012 [2012, Скалолазание/Climbing, DVDRip, EN]

Страницы:  1

Ответить
Автор
Сообщение

IlyaEremeev

Стаж: 11 лет 3 месяца

Сообщений: 3


IlyaEremeev · 12-Фев-13 20:29 (6 лет 4 месяца назад, ред. 12-Фев-13 20:33)

Reel Rock Film Tour 2012
Вид спорта: Скалолазание/Climbing
Участники: Jimmy Chin, Boone Speed, Keith Ladzinski, Alex Ekins, Brett Lowell, Peter Mortimer, Vojtech Vrzba
Дата/Год выпуска: 2012
Язык комментариев: Английский
Описание: Sender Films and Big UP Productions are bringing audiences a mind-blowing, palm-sweating pump-fest of climbing flicks for the 6th annual REEL ROCK Film Tour. We've gathered the wildest climbing stories from around the globe: The legendary race for The Nose speed record; A nine year old bouldering prodigy; Tommy Caldwell's efforts on the hardest big wall free climb; A crazed high-lining champion; The most insane ice climbing action ever and more. It's all part of the cinematic tour de force that is REEL ROCK 7.
The Dura Dura
Chris Sharma has been the "king" of sport climbing for 15 years, and has created a mecca for hard routes near his home in Catalunya, Spain. Now, the Czech wunderkind, 19 year old Adam Ondra, has come to Sharma's home turf to take the torch. Sharma and Ondra battle to establish the world's first 5.15c, while Sasha DiGiulian and Daila Ojeda shred women's standards with strong ascents of their own.

The Shark's Fin
Legendary alpinist Conrad Anker nurtured a 20 year obsession with The Shark's Fin, a spectacular unclimbed granite buttress on the 6,310 meter Mt. Meru, in India. In 2008 Anker, with Jimmy Chin and Renan Ozturk, endured a grueling 18 day push to get within hundreds of feet of the summit, only to be turned back. Three years later, the trio makes tough decision to return, despite Anker's deep family ties, and Ozturk's ski accident just six months before the trip, which resulted in a fractured skull, a broken neck, and serious doubts about going back.

Honnold 3.0
Alex Honnold has become known as the boldest soloist of his generation. In this dangerous game, how does he balance pure ambition with self-preservation? From highball boulder first ascents to 5.13 free solos, from far-flung trad climbing adventures, to speed records on The Nose, Honnold wrestles with this question in preparation for his biggest adventure yet - the Yosemite Triple. In under 19 hours he climbs Mt. Watkins, El Cap, and Half Dome, 95% of it free solo.

Wide Boys
American offwidth climbing has spawned a counter-culture of rough and tumble characters who aren't afraid to bleed their way up a route. So when two proper British lads, Tom Randall and Pete Whittaker, crossed the pond to eat up the gnarliest wide cracks in the West -- including the first ascent of the world's hardest offwidth known as Century Crack -- it came as quite a shock.
Автор рипа/записи: ?
Качество: DVDRip
Формат видео: MP4
Видео: MPEG4 Video 720x404 29.97fps 1789kbps
Аудио: AAC 48000Hz stereo 101kbps
Продолжительность
00:57:47 + 00:45:23
Скриншоты
MediaInfo
General
Complete name : g:\Reel_Rock_7_DVD_(2012)\Reel Rock 2012 DVD\RR_7_SCREENERDVD 1.mp4
Format : MPEG-4
Format profile : Base Media
Codec ID : isom
File size : 783 MiB
Duration : 57mn 47s
Overall bit rate mode : Variable
Overall bit rate : 1 895 Kbps
Movie name : RR_7_SCREENERDVD RR_7
Genre : MyDVD
Writing application : DigiArty AV Encoder Core
Video
ID : 1
Format : MPEG-4 Visual
Format profile : [email protected]
Format settings, BVOP : No
Format settings, QPel : No
Format settings, GMC : No warppoints
Format settings, Matrix : Default (H.263)
Codec ID : 20
Duration : 57mn 47s
Bit rate : 1 789 Kbps
Width : 720 pixels
Height : 404 pixels
Display aspect ratio : 16:9
Frame rate mode : Constant
Frame rate : 29.970 fps
Color space : YUV
Chroma subsampling : 4:2:0
Bit depth : 8 bits
Scan type : Progressive
Compression mode : Lossy
Bits/(Pixel*Frame) : 0.205
Stream size : 739 MiB (94%)
Writing library : DigiArty AV Encoder Core
Audio
ID : 2
Format : AAC
Format/Info : Advanced Audio Codec
Format profile : LC
Codec ID : 40
Duration : 57mn 47s
Bit rate mode : Variable
Bit rate : 101 Kbps
Channel(s) : 2 channels
Channel positions : Front: L R
Sampling rate : 48.0 KHz
Compression mode : Lossy
Stream size : 41.8 MiB (5%)
http://www.youtube.com/watch?v=VyUoVVDEa-E&feature=player_embedded
Download
Для скачивания .torrent файлов необходима регистрация
Сайт не распространяет и не хранит электронные версии произведений, а лишь предоставляет доступ к создаваемому пользователями каталогу ссылок на торрент-файлы, которые содержат только списки хеш-сумм
[Профиль]  [ЛС] 

udjin999

Стаж: 10 лет 3 месяца

Сообщений: 5

udjin999 · 14-Фев-13 21:47 (спустя 2 дня 1 час)

раздайте пожалуйста!то все никак не могу докачать!
[Профиль]  [ЛС] 
 
Ответить
Loading...
Error