(Pop/Retro) Красные Маки - Концерт и альбом (2 CD) - 2013, FLAC (image+.cue), lossless

Страницы:  1
Ответить
Автор
Сообщение

BTM2

Top Seed 01* 40r

Стаж: 9 лет 5 месяцев

Сообщений: 486

BTM2 · 03-Июн-13 20:03 (6 лет 2 месяца назад)

Красные Маки / Концерт и альбом (2 CD)
Жанр: Pop/Retro
Страна-производитель диска: Россия
Год издания: 2013
Страна: СССР
Аудиокодек: FLAC (*.flac)
Тип рипа: image+.cue
Битрейт аудио: lossless
Источник (релизер): Собственные диски
Наличие сканов в содержимом раздачи: да
1983 - Концерт в Серпухове
Год издания: 2013
Издатель (лейбл): Студия А
Номер по каталогу: SA-312-1
Продолжительность: 43:54
Треклист:
01. Инструментал
02. Приметы
03. Гонка века
04. Фортуна
05. Помни
06. Не жди меня
07. Если у тебя своя дорога
08. Токката ре-минор (Бах)
09. Симфония № 5, часть 1 (Бетховен)
10. Чудеса
11. Дождь
12. Лунатик
Лог создания рипа
Exact Audio Copy V1.0 beta 3 from 29. August 2011
Отчёт EAC об извлечении, выполненном 23. мая 2013, 0:00
Красные Маки / Концерт в Серпухове
Дисковод: Optiarc DVD RW AD-7280S Adapter: 1 ID: 0
Режим чтения : Достоверность
Использование точного потока : Да
Отключение кэша аудио : Да
Использование указателей C2 : Нет
Коррекция смещения при чтении : 48
Способность читать области Lead-in и Lead-out : Нет
Заполнение пропущенных сэмплов тишиной : Да
Удаление блоков с тишиной в начале и конце : Нет
При вычислениях CRC использовались нулевые сэмплы : Да
Интерфейс : Встроенный Win32-интерфейс для Win NT/2000
Выходной формат : Пользовательский кодировщик
Выбранный битрейт : 128 kBit/s
Качество : Высокий
Добавление ID3-тега : Нет
Утилита сжатия : C:\Program Files\Exact Audio Copy\FLAC\FLAC.EXE
Дополнительные параметры : -V -8 -T "Date=%year%" -T "Genre=%genre%" %source%
TOC извлечённого CD
Трек | Старт | Длительность | Начальный сектор | Конечный сектор
---------------------------------------------------------------------
1 | 0:00.00 | 1:46.26 | 0 | 7975
2 | 1:46.26 | 2:42.22 | 7976 | 20147
3 | 4:28.48 | 3:07.01 | 20148 | 34173
4 | 7:35.49 | 3:40.72 | 34174 | 50745
5 | 11:16.46 | 3:16.41 | 50746 | 65486
6 | 14:33.12 | 4:49.01 | 65487 | 87162
7 | 19:22.13 | 3:28.34 | 87163 | 102796
8 | 22:50.47 | 4:14.33 | 102797 | 121879
9 | 27:05.05 | 3:10.40 | 121880 | 136169
10 | 30:15.45 | 4:37.20 | 136170 | 156964
11 | 34:52.65 | 4:59.51 | 156965 | 179440
12 | 39:52.41 | 4:02.06 | 179441 | 197596
Характеристики диапазона извлечения и сообщения об ошибках
Выбранный диапазон
Имя файла C:\Documents and Settings\Пользователь\Мои документы\Раздачи на torrents.ru\Красные Маки - Концерт в Серпухове.wav
Пиковый уровень 95.6 %
Скорость извлечения 3.9 X
Качество диапазона 100.0 %
CRC теста 2F9637E2
CRC копии 2F9637E2
Копирование... OK
Ошибок не произошло
AccurateRip: сводка
Трек 1 отсутствует в базе данных
Трек 2 отсутствует в базе данных
Трек 3 отсутствует в базе данных
Трек 4 отсутствует в базе данных
Трек 5 отсутствует в базе данных
Трек 6 отсутствует в базе данных
Трек 7 отсутствует в базе данных
Трек 8 отсутствует в базе данных
Трек 9 отсутствует в базе данных
Трек 10 отсутствует в базе данных
Трек 11 отсутствует в базе данных
Трек 12 отсутствует в базе данных
Ни одного трека нет в базе AccurateRip
Конец отчёта
==== Контрольная сумма отчёта C0A73CD8A9BFC88A0586B1038A6437755E7F40575723027B9683B6E2DFDE0482 ====
Содержание индексной карты (.CUE)
REM GENRE Pop
REM DATE 2013
REM DISCID A80A4A0C
REM COMMENT "ExactAudioCopy v1.0b3"
PERFORMER "Красные Маки"
TITLE "Концерт в Серпухове"
FILE "Красные Маки - Концерт в Серпухове.flac" WAVE
TRACK 01 AUDIO
TITLE "Инструментал"
PERFORMER "Красные Маки"
ISRC 000000000000
INDEX 01 00:00:00
TRACK 02 AUDIO
TITLE "Приметы"
PERFORMER "Красные Маки"
ISRC 000000000000
INDEX 01 01:46:26
TRACK 03 AUDIO
TITLE "Гонка века"
PERFORMER "Красные Маки"
ISRC 000000000000
INDEX 01 04:28:48
TRACK 04 AUDIO
TITLE "Фортуна"
PERFORMER "Красные Маки"
ISRC 000000000000
INDEX 01 07:35:49
TRACK 05 AUDIO
TITLE "Помни"
PERFORMER "Красные Маки"
ISRC 000000000000
INDEX 01 11:16:46
TRACK 06 AUDIO
TITLE "Не жди меня"
PERFORMER "Красные Маки"
ISRC 000000000000
INDEX 01 14:33:12
TRACK 07 AUDIO
TITLE "Если у тебя своя дорога"
PERFORMER "Красные Маки"
ISRC 000000000000
INDEX 01 19:22:13
TRACK 08 AUDIO
TITLE "Токката ре-минор (Бах)"
PERFORMER "Красные Маки"
ISRC 000000000000
INDEX 01 22:50:47
TRACK 09 AUDIO
TITLE "Симфония, часть 5 (Бетховен)"
PERFORMER "Красные Маки"
ISRC 000000000000
INDEX 01 27:05:05
TRACK 10 AUDIO
TITLE "Чудеса"
PERFORMER "Красные Маки"
ISRC 000000000000
INDEX 01 30:15:45
TRACK 11 AUDIO
TITLE "Дождь"
PERFORMER "Красные Маки"
ISRC 000000000000
INDEX 01 34:52:65
TRACK 12 AUDIO
TITLE "Лунатик"
PERFORMER "Красные Маки"
ISRC 000000000000
INDEX 01 39:52:41
1984 - Звёздный дилижанс
Год издания: 2013
Издатель (лейбл): Студия А
Номер по каталогу: SA-312-2
Продолжительность: 40:26
Треклист:
01. Чудеса
02. Звёздный дилижанс
03. Путешествие на туче
04. Свет погасшей звезды
05. Время мчится
06. Лунатик
07. Ни о чём не жалей
08. Дождь
Лог создания рипа
Exact Audio Copy V1.0 beta 3 from 29. August 2011
Отчёт EAC об извлечении, выполненном 3. июня 2013, 1:01
Красные Маки / Звёздный дилижанс
Дисковод: TS8XDVDRTranscend Adapter: 2 ID: 0
Режим чтения : Достоверность
Использование точного потока : Да
Отключение кэша аудио : Да
Использование указателей C2 : Нет
Коррекция смещения при чтении : 6
Способность читать области Lead-in и Lead-out : Нет
Заполнение пропущенных сэмплов тишиной : Да
Удаление блоков с тишиной в начале и конце : Нет
При вычислениях CRC использовались нулевые сэмплы : Да
Интерфейс : Встроенный Win32-интерфейс для Win NT/2000
Выходной формат : Пользовательский кодировщик
Выбранный битрейт : 128 kBit/s
Качество : Высокий
Добавление ID3-тега : Нет
Утилита сжатия : C:\Program Files\Exact Audio Copy\FLAC\FLAC.EXE
Дополнительные параметры : -V -8 -T "Date=%year%" -T "Genre=%genre%" %source%
TOC извлечённого CD
Трек | Старт | Длительность | Начальный сектор | Конечный сектор
---------------------------------------------------------------------
1 | 0:00.00 | 4:50.29 | 0 | 21778
2 | 4:50.29 | 4:40.56 | 21779 | 42834
3 | 9:31.10 | 4:09.38 | 42835 | 61547
4 | 13:40.48 | 6:58.64 | 61548 | 92961
5 | 20:39.37 | 5:09.70 | 92962 | 116206
6 | 25:49.32 | 4:52.57 | 116207 | 138163
7 | 30:42.14 | 4:09.66 | 138164 | 156904
8 | 34:52.05 | 5:34.60 | 156905 | 182014
Характеристики диапазона извлечения и сообщения об ошибках
Выбранный диапазон
Имя файла C:\Documents and Settings\Пользователь\Мои документы\Раздачи на torrents.ru\Красные Маки - Звёздный дилижанс.wav
Пиковый уровень 95.3 %
Скорость извлечения 1.6 X
Качество диапазона 100.0 %
CRC теста AF51C572
CRC копии AF51C572
Копирование... OK
Ошибок не произошло
AccurateRip: сводка
Трек 1 отсутствует в базе данных
Трек 2 отсутствует в базе данных
Трек 3 отсутствует в базе данных
Трек 4 отсутствует в базе данных
Трек 5 отсутствует в базе данных
Трек 6 отсутствует в базе данных
Трек 7 отсутствует в базе данных
Трек 8 отсутствует в базе данных
Ни одного трека нет в базе AccurateRip
Конец отчёта
==== Контрольная сумма отчёта 83E9415FAF8563A792BAF885A0A67FB21A297D4E6D2B9B6C45A262693747642A ====
Содержание индексной карты (.CUE)
REM GENRE Pop
REM DATE 2013
REM DISCID 5E097A08
REM COMMENT "ExactAudioCopy v1.0b3"
PERFORMER "Красные Маки"
TITLE "Звёздный дилижанс"
FILE "Красные Маки - Звёздный дилижанс.flac" WAVE
TRACK 01 AUDIO
TITLE "Чудеса"
PERFORMER "Красные Маки"
ISRC 000000000000
INDEX 01 00:00:00
TRACK 02 AUDIO
TITLE "Звёздный дилижанс"
PERFORMER "Красные Маки"
ISRC 000000000000
INDEX 01 04:50:29
TRACK 03 AUDIO
TITLE "Путешествие на туче"
PERFORMER "Красные Маки"
ISRC 000000000000
INDEX 01 09:31:10
TRACK 04 AUDIO
TITLE "Свет погасшей звезды"
PERFORMER "Красные Маки"
ISRC 000000000000
INDEX 01 13:40:48
TRACK 05 AUDIO
TITLE "Время мчится"
PERFORMER "Красные Маки"
ISRC 000000000000
INDEX 01 20:39:37
TRACK 06 AUDIO
TITLE "Лунатик"
PERFORMER "Красные Маки"
ISRC 000000000000
INDEX 01 25:49:32
TRACK 07 AUDIO
TITLE "Ни о чём не жалей"
PERFORMER "Красные Маки"
ISRC 000000000000
INDEX 01 30:42:14
TRACK 08 AUDIO
TITLE "Дождь"
PERFORMER "Красные Маки"
ISRC 000000000000
INDEX 01 34:52:05
Download
Сайт не распространяет и не хранит электронные версии произведений, а лишь предоставляет доступ к создаваемому пользователями каталогу ссылок на торрент-файлы, которые содержат только списки хеш-сумм
Как скачивать? (для скачивания .torrent файлов необходима регистрация)
[Профиль]  [ЛС] 

BTM2

Top Seed 01* 40r

Стаж: 9 лет 5 месяцев

Сообщений: 486

BTM2 · 03-Июн-13 20:19 (спустя 16 мин.)

Раздача создана по просьбе zoomerband, kofe28, Premoution, kirill311x2.
Приятного прослушивания!
[Профиль]  [ЛС] 

BTM2

Top Seed 01* 40r

Стаж: 9 лет 5 месяцев

Сообщений: 486

BTM2 · 04-Июн-13 16:23 (спустя 20 часов)

Всем пожалуйста. zoomerband, случаем не генерал?
[Профиль]  [ЛС] 

zoomerband

Стаж: 9 лет

Сообщений: 862

zoomerband · 04-Июн-13 16:27 (спустя 3 мин.)

BTM2 писал(а):
59576852Всем пожалуйста. zoomerband, случаем не генерал?
А что, благодарность только генералы объявляют?
[Профиль]  [ЛС] 

mikejazz

Стаж: 9 лет 4 месяца

Сообщений: 263

mikejazz · 13-Июн-13 18:04 (спустя 9 дней)

BTM2
Прими и мою искреннюю благодарность,мимо пройти не мог!
[Профиль]  [ЛС] 

Al999

Стаж: 10 лет 3 месяца

Сообщений: 244

Al999 · 09-Янв-14 17:53 (спустя 6 месяцев)

Спасибо за редкие записи. Жаль что в "Звёздном дилижансе" последние песни с дефектом. Кому нужны эти песни вот здесь они есть https://rutracker.org/forum/viewtopic.php?t=3024821
[Профиль]  [ЛС] 

shmellic

Стаж: 9 лет 4 месяца

Сообщений: 124

shmellic · 25-Янв-14 13:39 (спустя 15 дней)

Спасибищеее(!!!) за такой бесценный раритет!!!!(Звёздный Дилижанс - 84). Искал (ждал) несколько лет именно из-за студийных версий "Лунатика" и "Свет погасшей звезды" в приемлемом качестве, - это гораздо лучшее качество, что встречается "во всей природе" (часть песен с этого магнитоальбома есть на авторском CD Руслана Горобца - "Время мчится"). ..Немного перегружены звеняще-шипящие "С"-ки, но это аккуратно-поправимо... В общем, ещё раз искренняя благодарность!!!
[Профиль]  [ЛС] 

BTM2

Top Seed 01* 40r

Стаж: 9 лет 5 месяцев

Сообщений: 486

BTM2 · 26-Янв-14 17:00 (спустя 1 день 3 часа, ред. 29-Янв-14 22:31)

Al999, shmellic
Пожалуйста. Слушайте на здоровье.
shmellic писал(а):
62681565это гораздо лучшее качество, что встречается "во всей природе"
Здесь на форуме есть группа воинствующих товарищей (завсегдатаем они хорошо известны), которым бесполезно объяснять, что среди дисков Студии А есть прилично звучащие записи.
[Профиль]  [ЛС] 

ostapenko

Стаж: 10 лет 5 месяцев

Сообщений: 242


ostapenko · 25-Апр-14 18:43 (спустя 2 месяца 30 дней)

ГЕОРГИАДИ И ХОРАЛОВ-ЗВЕЗДЫ НА ВСЕ ВРЕМЕНА-РЕСПЕКТ И УВАЖЕНИЕ ИМ И АВТОРУ РАЗДАЧИ
[Профиль]  [ЛС] 

shmellic

Стаж: 9 лет 4 месяца

Сообщений: 124

shmellic · 09-Июн-14 18:57 (спустя 1 месяц 14 дней, ред. 29-Июл-18 20:30)

BTM2, ещё раз Спасибо!
P.S: Сам из Серпухова, по этому оцифрованная концертная версия уже имелась.
[Профиль]  [ЛС] 

Pooh1966

Стаж: 10 лет 1 месяц

Сообщений: 7

Pooh1966 · 18-Дек-18 02:51 (спустя 4 года 6 месяцев)

Лучшая песня: Маша, Маша кроха наша... где?
Без неё это не Маки.
[Профиль]  [ЛС] 

mikejazz

Стаж: 9 лет 4 месяца

Сообщений: 263

mikejazz · 19-Дек-18 13:37 (спустя 1 день 10 часов)

Pooh1966 писал(а):
76517881Лучшая песня: Маша, Маша кроха наша... где?
Без неё это не Маки.
А какое отношение песня группы "Жар-птица" из подмосковной Дубны имеет отношение к "Красным Макам"? А уж "Маки" - это совершенно другой коллектив, периода распада группы в конце восьмидесятых.
[Профиль]  [ЛС] 
 
Ответить
Loading...
Error