Матрица / The Matrix (Энди Вачовски, Ларри Вачовски / Andy Wachowski, Larry Wachowski) [1999, США, фантастика, боевик, UHD BDRip 1080p] Dub + 2x MVO + 2x DVO + 8x AVO + Original + Commentary + Sub

Страницы:  1

Ответить
Автор
Сообщение

DCF24

Стаж: 3 года 1 месяц

Сообщений: 128


DCF24 · 21-Июн-18 19:38 (1 год назад, ред. 22-Июн-18 18:59)

Матрица / The Matrix
«Добро пожаловать в реальный мир»
Страна: США
Студия: Groucho II Film Partnership, Silver Pictures, Village Roadshow Pictures, Warner Bros
Жанр: фантастика, боевик
Год выпуска: 1999
Продолжительность: 02:06:18
Перевод: Профессиональный (полное дублированние)
+ Профессиональный (многоголосый закадровый)
+ Профессиональный (многоголосый закадровый) РТР / НТВ
+ Профессиональный (двухголосый закадровый) П.Гланц, И.Королёва
+ Профессиональный (двухголосый закадровый) TV1000
+ Авторский (одноголосый закадровый) А.Гаврилов
+ Авторский (одноголосый закадровый) Ю.Живов
+ Авторский (одноголосый закадровый) диктор CDV
+ Авторский (одноголосый закадровый) Д.Пучков "Полный Пэ"
+ Авторский (одноголосый закадровый) С.Визгунов
+ Авторский (одноголосый закадровый) А.Дольский (ранний)
+ Авторский (одноголосый закадровый) А.Дольский (поздний)
+ Авторский (одноголосый закадровый) А.Кашкин
Оригинальная аудиодорожка: Английская
Субтитры: Русские (полные) SDI Media Group, Английские (full, SDH), Fre, Ger, Ita, Spa, Vie
Режиссер: Энди Вачовски, Ларри Вачовски / Andy Wachowski, Larry Wachowski
В ролях: Киану Ривз, Лоренс Фишбёрн, Кэрри-Энн Мосс, Хьюго Уивинг, Джо Пантольяно, Глория Фостер, Маркус Чонг, Джулиан Араханга, Мэтт Доран, Белинда МакКлори
Описание: Жизнь Томаса Андерсона разделена на две части: днём он — самый обычный офисный работник, получающий нагоняи от начальства, а ночью превращается в хакера по имени Нео, и нет места в сети, куда он не смог бы дотянуться. Но однажды всё меняется — герой, сам того не желая, узнаёт страшную правду: всё, что его окружает — не более, чем иллюзия, Матрица, а люди — всего лишь источник питания для искусственного интеллекта, поработившего человечество. И только Нео под силу изменить расстановку сил в этом чужом и страшном мире.

• Энкод VietHD
Полное дублирование спасибо 1C_diman
• Дорожка № 3,7,9,10 c раздачи psicho
• Русские субтитры и звук. дорожки с раздачи evoldo
Тип релиза: UHD BDRip 1080p
Контейнер: MKV
Сэмпл: Скачать
Главы: Сохранены оригинальные Blu-Ray главы (подписаны)
Видео: 1920х800 (2,40:1), 23.976 fps, x.264, ~18,0 mbps avg, 0.489 bit/(pixel*frame)
Аудио #1: AC3 Dolby Digital, 48 kHz, 3/2 (L,C,R,l,r) + LFE ch, ~640 kbps | Полное дублирование
Аудио #2: AC3 Dolby Digital, 48 kHz, 3/2 (L,C,R,l,r) + LFE ch, ~640 kbps | English
*отдельным mka файлом
Аудио #3: Digital Theater Systems, 48 kHz, 3/2 (L,C,R,l,r) + LFE ch, ~1509 kbps | Многоголосый закадровый
Аудио #4: AC3 Dolby Digital, 48 kHz, 2/0 (L,R) ch, ~192 kbps | Многоголосый закадровый, НТВ/РТР
Аудио #5: AC3 Dolby Digital, 48 kHz, 2/0 (L,R) ch, ~192 kbps | Многоголосый закадровый, TV1000
Аудио #6: Digital Theater Systems, 48 kHz, 3/2 (L,C,R,l,r) + LFE ch, ~1509 kbps | Одноголосый закадровый, Д.Пучков "Полный Пэ"
Аудио #7: Digital Theater Systems, 48 kHz, 3/2 (L,C,R,l,r) + LFE ch, ~1509 kbps | Одноголосый закадровый, А.Гаврилов
Аудио #8: Digital Theater Systems, 48 kHz, 3/2 (L,C,R,l,r) + LFE ch, ~1509 kbps | Одноголосый закадровый, Ю.Живов
Аудио #9: Digital Theater Systems, 48 kHz, 3/2 (L,C,R,l,r) + LFE ch, ~1509 kbps | Двухголосый закадровый, П.Гланц, И.Королёва
Аудио #10: Digital Theater Systems, 48 kHz, 3/2 (L,C,R,l,r) + LFE ch, ~1509 kbps | Одноголосый закадровый, CDV
Аудио #11: AC3 Dolby Digital, 48 kHz, 2/0 (L,R) ch, ~192 kbps | Одноголосый закадровый, С.Визгунов
Аудио #12: AC3 Dolby Digital, 48 kHz, 2/0 (L,R) ch, ~192 kbps | Одноголосый закадровый, А.Дольский (Новый перевод)
Аудио #13: AC3 Dolby Digital, 48 kHz, 1/0 (С) ch, ~192 kbps | Одноголосый закадровый, А.Дольский (Старый перевод)
Аудио #14: AC3 Dolby Digital, 48 kHz, 2/0 (L,R) ch, ~448 kbps | Одноголосый закадровый, А.Кашкин
Аудио #15: AC3 Dolby Digital, 48 kHz, 2/0 (L,R) ch, ~192 kbps | Philosophers Commentary by Dr. Cornel West and Ken Wilber
Аудио #16: AC3 Dolby Digital, 48 kHz, 2/0 (L,R) ch, ~192 kbps | Critics Commentary by Todd McCarthy, John Powers and David Thomson
Аудио #17: AC3 Dolby Digital, 48 kHz, 2/0 (L,R) ch, ~192 kbps | Composer Commentary by Don Davis with Music-Only Track
Аудио #18: AC3 Dolby Digital, 48 kHz, 2/0 (L,R) ch, ~192 kbps | Cast & Crew Commentary by Carrie-Anne Moss, Zach Staenberg and John Gaeta
Формат субтитров: softsub (SRT/UTF-8)
MediaInfo
Mediainfo отдельных звуковых дорог
Общее
Уникальный идентификатор : 12021305032001526904517090806408483559 (0x90B38191C99D125A3AB7F82AF7912E7)
Полное имя : E:\The Matrix 1999 1080p UHD BluRay DD5.1 x264-VietHD\The Matrix 1999 1080p UHD BluRay DD5.1 x264-VietHD.mka
Формат : Matroska
Версия формата : Version 4 / Version 2
Размер файла : 10,7 Гбайт
Продолжительность : 2 ч. 16 м.
Режим общего битрейта : Постоянный
Общий поток : 11,2 Мбит/сек
Дата кодирования : UTC 2018-06-21 14:45:19
Программа кодирования : mkvmerge v22.0.0 ('At The End Of The World') 32-bit
Библиотека кодирования : libebml v1.3.5 + libmatroska v1.4.8
Аудио #1
Идентификатор : 1
Формат : DTS
Формат/Информация : Digital Theater Systems
Идентификатор кодека : A_DTS
Продолжительность : 2 ч. 16 м.
Вид битрейта : Постоянный
Битрейт : 1509 Кбит/сек
Каналы : 6 каналов
Расположение каналов : Front: L C R, Side: L R, LFE
Частота : 48,0 КГц
Частота кадров : 93,750 кадра/сек (512 SPF)
Битовая глубина : 16 бит
Метод сжатия : С потерями
Размер потока : 1,44 Гбайт (13%)
Заголовок : MVO, [email protected] kbps
Язык : Russian
Default : Нет
Forced : Нет
Аудио #2
Идентификатор : 2
Формат : AC-3
Формат/Информация : Audio Coding 3
Идентификатор кодека : A_AC3
Продолжительность : 2 ч. 16 м.
Вид битрейта : Постоянный
Битрейт : 192 Кбит/сек
Каналы : 2 канала
Расположение каналов : Front: L R
Частота : 48,0 КГц
Частота кадров : 31,250 кадров/сек (1536 SPF)
Битовая глубина : 16 бит
Метод сжатия : С потерями
Размер потока : 187 Мбайт (2%)
Заголовок : MVO, [email protected] kbps (NTV/RTR)
Язык : Russian
ServiceKind/String : Complete Main
Default : Нет
Forced : Нет
Аудио #3
Идентификатор : 3
Формат : AC-3
Формат/Информация : Audio Coding 3
Идентификатор кодека : A_AC3
Продолжительность : 2 ч. 16 м.
Вид битрейта : Постоянный
Битрейт : 192 Кбит/сек
Каналы : 2 канала
Расположение каналов : Front: L R
Частота : 48,0 КГц
Частота кадров : 31,250 кадров/сек (1536 SPF)
Битовая глубина : 16 бит
Метод сжатия : С потерями
Размер потока : 187 Мбайт (2%)
Заголовок : MVO, [email protected] kbps (TV1000)
Язык : Russian
ServiceKind/String : Complete Main
Default : Нет
Forced : Нет
Аудио #4
Идентификатор : 4
Формат : DTS
Формат/Информация : Digital Theater Systems
Идентификатор кодека : A_DTS
Продолжительность : 2 ч. 16 м.
Вид битрейта : Постоянный
Битрейт : 1509 Кбит/сек
Каналы : 6 каналов
Расположение каналов : Front: L C R, Side: L R, LFE
Частота : 48,0 КГц
Частота кадров : 93,750 кадра/сек (512 SPF)
Битовая глубина : 16 бит
Метод сжатия : С потерями
Размер потока : 1,44 Гбайт (13%)
Заголовок : AVO, [email protected] kbps (D.Puchkov) "Полный Пэ"
Язык : Russian
Default : Нет
Forced : Нет
Аудио #5
Идентификатор : 5
Формат : DTS
Формат/Информация : Digital Theater Systems
Идентификатор кодека : A_DTS
Продолжительность : 2 ч. 16 м.
Вид битрейта : Постоянный
Битрейт : 1509 Кбит/сек
Каналы : 6 каналов
Расположение каналов : Front: L C R, Side: L R, LFE
Частота : 48,0 КГц
Частота кадров : 93,750 кадра/сек (512 SPF)
Битовая глубина : 16 бит
Метод сжатия : С потерями
Размер потока : 1,44 Гбайт (13%)
Заголовок : AVO, [email protected] kbps (A.Gavrilov)
Язык : Russian
Default : Нет
Forced : Нет
Аудио #6
Идентификатор : 6
Формат : DTS
Формат/Информация : Digital Theater Systems
Идентификатор кодека : A_DTS
Продолжительность : 2 ч. 16 м.
Вид битрейта : Постоянный
Битрейт : 1509 Кбит/сек
Каналы : 6 каналов
Расположение каналов : Front: L C R, Side: L R, LFE
Частота : 48,0 КГц
Частота кадров : 93,750 кадра/сек (512 SPF)
Битовая глубина : 16 бит
Метод сжатия : С потерями
Размер потока : 1,44 Гбайт (13%)
Заголовок : AVO, [email protected]1509 kbps (Y.Zhivov)
Язык : Russian
Default : Нет
Forced : Нет
Аудио #7
Идентификатор : 7
Формат : DTS
Формат/Информация : Digital Theater Systems
Идентификатор кодека : A_DTS
Продолжительность : 2 ч. 16 м.
Вид битрейта : Постоянный
Битрейт : 1509 Кбит/сек
Каналы : 6 каналов
Расположение каналов : Front: L C R, Side: L R, LFE
Частота : 48,0 КГц
Частота кадров : 93,750 кадра/сек (512 SPF)
Битовая глубина : 16 бит
Метод сжатия : С потерями
Размер потока : 1,44 Гбайт (13%)
Заголовок : AVO, [email protected] kbps (P.Glantz)
Язык : Russian
Default : Нет
Forced : Нет
Аудио #8
Идентификатор : 8
Формат : DTS
Формат/Информация : Digital Theater Systems
Идентификатор кодека : A_DTS
Продолжительность : 2 ч. 16 м.
Вид битрейта : Постоянный
Битрейт : 1509 Кбит/сек
Каналы : 6 каналов
Расположение каналов : Front: L C R, Side: L R, LFE
Частота : 48,0 КГц
Частота кадров : 93,750 кадра/сек (512 SPF)
Битовая глубина : 16 бит
Метод сжатия : С потерями
Размер потока : 1,44 Гбайт (13%)
Заголовок : AVO, [email protected] kbps (CDV)
Язык : Russian
Default : Нет
Forced : Нет
Аудио #9
Идентификатор : 9
Формат : AC-3
Формат/Информация : Audio Coding 3
Идентификатор кодека : A_AC3
Продолжительность : 2 ч. 16 м.
Вид битрейта : Постоянный
Битрейт : 192 Кбит/сек
Каналы : 2 канала
Расположение каналов : Front: L R
Частота : 48,0 КГц
Частота кадров : 31,250 кадров/сек (1536 SPF)
Битовая глубина : 16 бит
Метод сжатия : С потерями
Размер потока : 187 Мбайт (2%)
Заголовок : AVO, [email protected] kbps (S.Visgunov)
Язык : Russian
ServiceKind/String : Complete Main
Default : Нет
Forced : Нет
Аудио #10
Идентификатор : 10
Формат : AC-3
Формат/Информация : Audio Coding 3
Идентификатор кодека : A_AC3
Продолжительность : 2 ч. 13 м.
Вид битрейта : Постоянный
Битрейт : 192 Кбит/сек
Каналы : 2 канала
Расположение каналов : Front: L R
Частота : 48,0 КГц
Частота кадров : 31,250 кадров/сек (1536 SPF)
Битовая глубина : 16 бит
Метод сжатия : С потерями
Размер потока : 183 Мбайт (2%)
Заголовок : AVO, [email protected] kbps (A.Dolskiy) Новый перевод
Язык : Russian
ServiceKind/String : Complete Main
Default : Нет
Forced : Нет
Аудио #11
Идентификатор : 11
Формат : AC-3
Формат/Информация : Audio Coding 3
Идентификатор кодека : A_AC3
Продолжительность : 2 ч. 13 м.
Вид битрейта : Постоянный
Битрейт : 192 Кбит/сек
Каналы : 1 канал
Расположение каналов : Front: C
Частота : 48,0 КГц
Частота кадров : 31,250 кадров/сек (1536 SPF)
Битовая глубина : 16 бит
Метод сжатия : С потерями
Размер потока : 183 Мбайт (2%)
Заголовок : AVO, [email protected] kbps (A.Dolskiy) Старый перевод
Язык : Russian
ServiceKind/String : Complete Main
Default : Нет
Forced : Нет
Аудио #12
Идентификатор : 12
Формат : AC-3
Формат/Информация : Audio Coding 3
Идентификатор кодека : A_AC3
Продолжительность : 2 ч. 14 м.
Вид битрейта : Постоянный
Битрейт : 448 Кбит/сек
Каналы : 2 канала
Расположение каналов : Front: L R
Частота : 48,0 КГц
Частота кадров : 31,250 кадров/сек (1536 SPF)
Битовая глубина : 16 бит
Метод сжатия : С потерями
Размер потока : 432 Мбайт (4%)
Заголовок : AVO, [email protected] kbps (A.Kashkin)
Язык : Russian
ServiceKind/String : Complete Main
Default : Нет
Forced : Нет
Аудио #13
Идентификатор : 13
Формат : AC-3
Формат/Информация : Audio Coding 3
Идентификатор кодека : A_AC3
Продолжительность : 2 ч. 16 м.
Вид битрейта : Постоянный
Битрейт : 192 Кбит/сек
Каналы : 2 канала
Расположение каналов : Front: L R
Частота : 48,0 КГц
Частота кадров : 31,250 кадров/сек (1536 SPF)
Битовая глубина : 16 бит
Метод сжатия : С потерями
Размер потока : 187 Мбайт (2%)
Заголовок : [email protected] kbps, Philosophers Commentary by Dr. Cornel West and Ken Wilber
Язык : English
ServiceKind/String : Complete Main
Default : Нет
Forced : Нет
Аудио #14
Идентификатор : 14
Формат : AC-3
Формат/Информация : Audio Coding 3
Идентификатор кодека : A_AC3
Продолжительность : 2 ч. 16 м.
Вид битрейта : Постоянный
Битрейт : 192 Кбит/сек
Каналы : 2 канала
Расположение каналов : Front: L R
Частота : 48,0 КГц
Частота кадров : 31,250 кадров/сек (1536 SPF)
Битовая глубина : 16 бит
Метод сжатия : С потерями
Размер потока : 187 Мбайт (2%)
Заголовок : [email protected] kbps, Critics Commentary by Todd McCarthy, John Powers and David Thomson
Язык : English
ServiceKind/String : Complete Main
Default : Нет
Forced : Нет
Аудио #15
Идентификатор : 15
Формат : AC-3
Формат/Информация : Audio Coding 3
Идентификатор кодека : A_AC3
Продолжительность : 2 ч. 16 м.
Вид битрейта : Постоянный
Битрейт : 192 Кбит/сек
Каналы : 2 канала
Расположение каналов : Front: L R
Частота : 48,0 КГц
Частота кадров : 31,250 кадров/сек (1536 SPF)
Битовая глубина : 16 бит
Метод сжатия : С потерями
Размер потока : 187 Мбайт (2%)
Заголовок : [email protected] kbps, Composer Commentary by Don Davis with Music-Only Track
Язык : English
ServiceKind/String : Complete Main
Default : Нет
Forced : Нет
Аудио #16
Идентификатор : 16
Формат : AC-3
Формат/Информация : Audio Coding 3
Идентификатор кодека : A_AC3
Продолжительность : 2 ч. 16 м.
Вид битрейта : Постоянный
Битрейт : 192 Кбит/сек
Каналы : 2 канала
Расположение каналов : Front: L R
Частота : 48,0 КГц
Частота кадров : 31,250 кадров/сек (1536 SPF)
Битовая глубина : 16 бит
Метод сжатия : С потерями
Размер потока : 187 Мбайт (2%)
Заголовок : [email protected] kbps, Cast & Crew Commentary by Carrie-Anne Moss, Zach Staenberg and John Gaeta
Язык : English
ServiceKind/String : Complete Main
Default : Нет
Forced : Нет
Общее
Уникальный идентификатор : 252954761818379194092234748682347791568 (0xBE4D50A6354C1E4F06D191F89704C4D0)
Полное имя : E:\The Matrix 1999 1080p UHD BluRay DD5.1 x264-VietHD\The Matrix 1999 1080p UHD BluRay DD5.1 x264-VietHD.mkv
Формат : Matroska
Версия формата : Version 4 / Version 2
Размер файла : 19,1 Гбайт
Продолжительность : 2 ч. 16 м.
Общий поток : 20,1 Мбит/сек
Название фильма : The Matrix (1999)
Дата кодирования : UTC 2018-06-20 16:47:02
Программа кодирования : mkvmerge v22.0.0 ('At The End Of The World') 32-bit
Библиотека кодирования : libebml v1.3.5 + libmatroska v1.4.8
Обложка : Yes
Attachments : cover.jpeg
Видео
Идентификатор : 1
Формат : AVC
Формат/Информация : Advanced Video Codec
Профиль формата : [email protected]
Настройки формата : CABAC / 5 Ref Frames
Параметр CABAC формата : Да
Параметр RefFrames формата : 5 кадров
Идентификатор кодека : V_MPEG4/ISO/AVC
Продолжительность : 2 ч. 16 м.
Битрейт : 18,0 Мбит/сек
Ширина : 1920 пикселей
Высота : 800 пикселей
Соотношение сторон : 2,40:1
Режим частоты кадров : Постоянный
Частота кадров : 23,976 (24000/1001) кадра/сек
Цветовое пространство : YUV
Субдискретизация насыщенности : 4:2:0
Битовая глубина : 8 бит
Тип развёртки : Прогрессивная
Бит/(Пиксели*Кадры) : 0.489
Размер потока : 17,1 Гбайт (90%)
Библиотека кодирования : x264 core 155 r2867+82 a249126 t_mod_Custom_2 [[email protected] X86_64]
Настройки программы : cabac=1 / ref=5 / deblock=1:-3:-3 / analyse=0x3:0x133 / me=umh / subme=10 / psy=1 / fade_compensate=0.00 / psy_rd=1.00:0.00 / mixed_ref=1 / me_range=32 / chroma_me=1 / trellis=2 / 8x8dct=1 / cqm=0 / deadzone=21,11 / fast_pskip=0 / chroma_qp_offset=-2 / threads=24 / lookahead_threads=6 / sliced_threads=0 / nr=0 / decimate=0 / interlaced=0 / bluray_compat=0 / constrained_intra=0 / fgo=0 / bframes=11 / b_pyramid=2 / b_adapt=2 / b_bias=0 / direct=3 / weightb=1 / open_gop=0 / weightp=2 / keyint=250 / keyint_min=23 / scenecut=40 / intra_refresh=0 / rc_lookahead=60 / rc=crf / mbtree=0 / crf=18.2000 / qcomp=0.60 / qpmin=0:0:0 / qpmax=69:69:69 / qpstep=4 / vbv_maxrate=62500 / vbv_bufsize=78125 / crf_max=0.0 / nal_hrd=none / filler=0 / ip_ratio=1.30 / pb_ratio=1.20 / aq=3:0.80 / aq-sensitivity=10.00 / aq-factor=1.00:1.00:1.00 / aq2=0 / aq3=0 / zones=521,590,crf=17.4/2100,2130,crf=17.6/2190,2354,crf=17.6/48106,48320,crf=17.6/50272,50400,crf=17.6/60801,61919,crf=17.6/182288,182376,crf=17.6/182943,182999,crf=17.6/183342,183976,crf=17.6
Язык : English
Default : Да
Forced : Нет
Цветовой диапазон : Limited
Коэффициенты матрицы : BT.709
Аудио #1
Идентификатор : 2
Формат : AC-3
Формат/Информация : Audio Coding 3
Идентификатор кодека : A_AC3
Продолжительность : 2 ч. 16 м.
Вид битрейта : Постоянный
Битрейт : 640 Кбит/сек
Каналы : 6 каналов
Расположение каналов : Front: L C R, Side: L R, LFE
Частота : 48,0 КГц
Частота кадров : 31,250 кадров/сек (1536 SPF)
Битовая глубина : 16 бит
Метод сжатия : С потерями
Размер потока : 624 Мбайт (3%)
Заголовок : Dub, [email protected] kbps
Язык : Russian
ServiceKind/String : Complete Main
Default : Да
Forced : Нет
Аудио #2
Идентификатор : 3
Формат : AC-3
Формат/Информация : Audio Coding 3
Идентификатор кодека : A_AC3
Продолжительность : 2 ч. 16 м.
Вид битрейта : Постоянный
Битрейт : 640 Кбит/сек
Каналы : 6 каналов
Расположение каналов : Front: L C R, Side: L R, LFE
Частота : 48,0 КГц
Частота кадров : 31,250 кадров/сек (1536 SPF)
Битовая глубина : 16 бит
Метод сжатия : С потерями
Размер потока : 624 Мбайт (3%)
Язык : English
ServiceKind/String : Complete Main
Default : Нет
Forced : Нет
Аудио #3
Идентификатор : 4
Формат : AC-3
Формат/Информация : Audio Coding 3
Идентификатор кодека : A_AC3
Продолжительность : 2 ч. 16 м.
Вид битрейта : Постоянный
Битрейт : 192 Кбит/сек
Каналы : 2 канала
Расположение каналов : Front: L R
Частота : 48,0 КГц
Частота кадров : 31,250 кадров/сек (1536 SPF)
Битовая глубина : 16 бит
Метод сжатия : С потерями
Размер потока : 187 Мбайт (1%)
Заголовок : Philosophers Commentary by Dr. Cornel West and Ken Wilber
Язык : English
ServiceKind/String : Complete Main
Default : Нет
Forced : Нет
Аудио #4
Идентификатор : 5
Формат : AC-3
Формат/Информация : Audio Coding 3
Идентификатор кодека : A_AC3
Продолжительность : 2 ч. 16 м.
Вид битрейта : Постоянный
Битрейт : 192 Кбит/сек
Каналы : 2 канала
Расположение каналов : Front: L R
Частота : 48,0 КГц
Частота кадров : 31,250 кадров/сек (1536 SPF)
Битовая глубина : 16 бит
Метод сжатия : С потерями
Размер потока : 187 Мбайт (1%)
Заголовок : Critics Commentary by Todd McCarthy, John Powers and David Thomson
Язык : English
ServiceKind/String : Complete Main
Default : Нет
Forced : Нет
Аудио #5
Идентификатор : 6
Формат : AC-3
Формат/Информация : Audio Coding 3
Идентификатор кодека : A_AC3
Продолжительность : 2 ч. 16 м.
Вид битрейта : Постоянный
Битрейт : 192 Кбит/сек
Каналы : 2 канала
Расположение каналов : Front: L R
Частота : 48,0 КГц
Частота кадров : 31,250 кадров/сек (1536 SPF)
Битовая глубина : 16 бит
Метод сжатия : С потерями
Размер потока : 187 Мбайт (1%)
Заголовок : Cast & Crew Commentary by Carrie-Anne Moss, Zach Staenberg and John Gaeta
Язык : English
ServiceKind/String : Complete Main
Default : Нет
Forced : Нет
Аудио #6
Идентификатор : 7
Формат : AC-3
Формат/Информация : Audio Coding 3
Идентификатор кодека : A_AC3
Продолжительность : 2 ч. 16 м.
Вид битрейта : Постоянный
Битрейт : 192 Кбит/сек
Каналы : 2 канала
Расположение каналов : Front: L R
Частота : 48,0 КГц
Частота кадров : 31,250 кадров/сек (1536 SPF)
Битовая глубина : 16 бит
Метод сжатия : С потерями
Размер потока : 187 Мбайт (1%)
Заголовок : Composer Commentary by Don Davis with Music-Only Track
Язык : English
ServiceKind/String : Complete Main
Default : Нет
Forced : Нет
Текст #1
Идентификатор : 8
Формат : UTF-8
Идентификатор кодека : S_TEXT/UTF8
Идентификатор кодека/Информация : UTF-8 Plain Text
Продолжительность : 2 ч. 15 м.
Битрейт : 64 бит/сек
ElementCount : 1367
Размер потока : 64,0 Кбайт (0%)
Заголовок : Полные, SDI Media Group
Язык : Russian
Default : Нет
Forced : Нет
Текст #2
Идентификатор : 9
Формат : UTF-8
Идентификатор кодека : S_TEXT/UTF8
Идентификатор кодека/Информация : UTF-8 Plain Text
Продолжительность : 2 ч. 7 м.
Битрейт : 41 бит/сек
ElementCount : 1344
Размер потока : 38,5 Кбайт (0%)
Язык : English
Default : Нет
Forced : Нет
Текст #3
Идентификатор : 10
Формат : UTF-8
Идентификатор кодека : S_TEXT/UTF8
Идентификатор кодека/Информация : UTF-8 Plain Text
Продолжительность : 2 ч. 15 м.
Битрейт : 40 бит/сек
ElementCount : 1373
Размер потока : 39,9 Кбайт (0%)
Заголовок : SDH
Язык : English
Default : Нет
Forced : Нет
Текст #4
Идентификатор : 11
Формат : UTF-8
Идентификатор кодека : S_TEXT/UTF8
Идентификатор кодека/Информация : UTF-8 Plain Text
Продолжительность : 2 ч. 7 м.
Битрейт : 38 бит/сек
ElementCount : 1344
Размер потока : 35,7 Кбайт (0%)
Язык : French
Default : Нет
Forced : Нет
Текст #5
Идентификатор : 12
Формат : UTF-8
Идентификатор кодека : S_TEXT/UTF8
Идентификатор кодека/Информация : UTF-8 Plain Text
Продолжительность : 2 ч. 15 м.
Битрейт : 38 бит/сек
ElementCount : 1387
Размер потока : 38,3 Кбайт (0%)
Язык : German
Default : Нет
Forced : Нет
Текст #6
Идентификатор : 13
Формат : UTF-8
Идентификатор кодека : S_TEXT/UTF8
Идентификатор кодека/Информация : UTF-8 Plain Text
Продолжительность : 2 ч. 7 м.
Битрейт : 38 бит/сек
ElementCount : 1382
Размер потока : 36,4 Кбайт (0%)
Язык : Italian
Default : Нет
Forced : Нет
Текст #7
Идентификатор : 14
Формат : UTF-8
Идентификатор кодека : S_TEXT/UTF8
Идентификатор кодека/Информация : UTF-8 Plain Text
Продолжительность : 2 ч. 7 м.
Битрейт : 40 бит/сек
ElementCount : 1324
Размер потока : 38,2 Кбайт (0%)
Язык : Spanish
Default : Нет
Forced : Нет
Текст #8
Идентификатор : 15
Формат : UTF-8
Идентификатор кодека : S_TEXT/UTF8
Идентификатор кодека/Информация : UTF-8 Plain Text
Продолжительность : 2 ч. 8 м.
Битрейт : 53 бит/сек
ElementCount : 1312
Размер потока : 50,7 Кбайт (0%)
Язык : Vietnamese
Default : Нет
Forced : Нет
Меню
00:00:00.000 : en:1. Trinity in a Jam
00:03:25.789 : en:2. Impossible Pursuit
00:06:35.645 : en:3. Follow Instructions
00:09:42.665 : en:4. The Question
00:11:58.301 : en:5. "They're Coming for You"
00:16:47.423 : en:6. Unable to Speak
00:21:33.542 : en:7. Getting the Bug Out
00:25:08.590 : en:8. Morpheus' Proposal
00:28:51.146 : en:9. Down the Rabbit Hole
00:32:25.193 : en:10. Slimy Rebirth
00:35:21.870 : en:11. Nebuchadnezzar's Crew
00:38:40.902 : en:12. The Real World
00:44:22.577 : en:13. The Search Is Over
00:46:33.541 : en:14. Training Begins
00:48:57.852 : en:15. Morpheus/Neo Matchup
00:53:31.291 : en:16. First Jump
00:56:32.139 : en:17. The Gatekeepers
00:59:01.288 : en:18. Running Silent and Deep
01:01:08.582 : en:19. Dealing for Bliss
01:05:16.496 : en:20. Off to See the Oracle
01:07:46.813 : en:21. There Is No Spoon
01:12:33.432 : en:22. Choices...and a Cookie
01:17:49.582 : en:23. Glitch in the Matrix
01:21:03.108 : en:24. One Left Behide
01:25:05.350 : en:25. Heroes Unplugged
01:29:45.130 : en:26. Cypher's Burnout
01:31:27.565 : en:27. Matters of Belief
01:37:25.256 : en:28. Virus to Be Cured
01:41:04.976 : en:29. Lobby Shooting Spree
01:44:20.337 : en:30. Dodge This
01:47:00.497 : en:31. Gotcha
01:50:18.529 : en:32. Rooftop Rescue
01:52:56.687 : en:33. Subway Showdown
01:56:36.907 : en:34. "My Name Is Neo"
01:58:49.372 : en:35. Sentinels Attack
02:02:27.423 : en:36. "He Is the One"
02:05:41.784 : en:37. Final Connections
02:08:46.802 : en:38. End Credits ("Wake Up Rock Is Dead")
Notes
RELEASE NAME...: The Matrix 1999 1080p UHD BluRay DD5.1 x264-VietHD
ENCODED DATE...: UTC 2018-05-27 02:40:28
RELEASE SIZE...: 18.5 GiB
RUNTIME........: 02:16:18.688
VIDEO CODEC....: x264, [email protected]
FRAMERATE......: 23.976 fps
BITRATE........: 18.0 Mbps
RESOLUTION.....: 1920x800 (2.400:1)
AUDIO 1........: English AC-3 5.1 @ 640 kbps
AUDIO 2-5......: English AC-3 2.0 @ 192 kbps
................ - Philosophers Commentary by Dr. Cornel West and Ken Wilber
................ - Critics Commentary by Todd McCarthy, John Powers and David Thomson
................ - Cast & Crew Commentary by Carrie-Anne Moss, Zach Staenberg and John Gaeta
................ - Composer Commentary by Don Davis with Music-Only Track
SUBTITLES......: English, English SDH, French, German, Italian, Spanish, Vietnamese (.srt)
CHAPTERS.......: Yes (named)
SOURCE.........: 2160p EUR UHD Blu-ray HEVC TrueHD 7.1-COASTER (Thanks yrg815!)
- Tonemapped HDR -> SDR.
x264 info
x264 [info]: frame I:1307 Avg QP:16.17 size:196129
x264 [info]: frame P:39896 Avg QP:17.37 size:136181
x264 [info]: frame B:154889 Avg QP:18.92 size: 82111
x264 [info]: consecutive B-frames: 2.6% 3.0% 6.1% 13.9% 11.5% 37.4% 6.7% 4.3% 4.0% 3.9% 3.9% 2.9%
encoded 196092 frames, 10.31 fps, 18005.43 kb/s, 17555 MB
Скриншоты
Download
Для скачивания .torrent файлов необходима регистрация
Сайт не распространяет и не хранит электронные версии произведений, а лишь предоставляет доступ к создаваемому пользователями каталогу ссылок на торрент-файлы, которые содержат только списки хеш-сумм
[Профиль]  [ЛС] 

vdiiimiiius

Стаж: 9 лет 6 месяцев

Сообщений: 585


vdiiimiiius · 16-Июл-18 15:15 (спустя 24 дня, ред. 16-Июл-18 15:15)

А что за отдельный файл весом в 10 гб ? Не может же это быть аудио дорога .
[Профиль]  [ЛС] 

IblackjackI

Стаж: 10 лет

Сообщений: 392

IblackjackI · 18-Июл-18 23:34 (спустя 2 дня 8 часов, ред. 18-Июл-18 23:34)

vdiiimiiius контейнер, в который упакованы аудиодороги с 3 по 18.
p.s. Спасибо за релиз. Как я понимаю, новый ремастеринг в плане цветопередачи ближе к прокатной версии и старенькому dvd, нежели к изданию 2008-го, в котором первый фильм "озеленили", подогнав его под сиквелы.
Больше информации с наглядным сравнением по ссылке.
[Профиль]  [ЛС] 

-----врот---

Стаж: 8 лет 10 месяцев

Сообщений: 9


-----врот--- · 31-Июл-18 14:33 (спустя 12 дней)

фильм норм качества, звучок лагает ВЕСЬ на всех дорожках. смотрю на проигрывателе на 75 плазме. первый и третий фильм идет в UHD прям норм. этот же...
смотреть не приятно. убери лишние дороги, они не нужны вообще. положи отдельно, искусствоведы профессионалы найдут этот бесценный дар и накачают себе сами. только видео портить.
[Профиль]  [ЛС] 

DCF24

Стаж: 3 года 1 месяц

Сообщений: 128


DCF24 · 14-Авг-18 23:26 (спустя 14 дней, ред. 14-Авг-18 23:26)

-----врот--- писал(а):
75742497фильм норм качества, звучок лагает ВЕСЬ на всех дорожках. смотрю на проигрывателе на 75 плазме. первый и третий фильм идет в UHD прям норм. этот же...
смотреть не приятно. убери лишние дороги, они не нужны вообще. положи отдельно, искусствоведы профессионалы найдут этот бесценный дар и накачают себе сами. только видео портить.
врот мне ноги
У кого нибудь еще подобные проблемы были?
-----врот--- писал(а):
75742497смотрю на проигрывателе на 75 плазме
Проверял на древнем пне все было зоя.
[Профиль]  [ЛС] 

IblackjackI

Стаж: 10 лет

Сообщений: 392

IblackjackI · 16-Авг-18 03:50 (спустя 1 день 4 часа, ред. 16-Авг-18 03:50)

DCF24, нет, все отлично. Думаю у человека какая-то проблема с чтением mka (или с руками).
-----врот--- писал(а):
убери лишние дороги, они не нужны вообще. положи отдельно
Так они и лежат отдельно
[Профиль]  [ЛС] 

BravoMas

Стаж: 9 лет 5 месяцев

Сообщений: 38

BravoMas · 19-Сен-18 21:26 (спустя 1 месяц 3 дня)

Чей перевод более точно передает смысл фильма?
[Профиль]  [ЛС] 

bvb1969

Стаж: 9 лет 7 месяцев

Сообщений: 13


bvb1969 · 08-Окт-18 10:15 (спустя 18 дней)

Скачал полностью. Есть только 2 аудио дорожки : 1 русская 2 английская. Остальные дороги не видит. Подскажите что не так? Как добавить в меню остальные дорожки? Воспроизводил на тв LG и на медиаплеере.
[Профиль]  [ЛС] 

abdul_rutracker

Стаж: 7 лет 7 месяцев

Сообщений: 1


abdul_rutracker · 18-Ноя-18 16:14 (спустя 1 месяц 10 дней)

BravoMas писал(а):
75989803Чей перевод более точно передает смысл фильма?
нашли ответ?
[Профиль]  [ЛС] 

Artur1987_87

Стаж: 9 лет 8 месяцев

Сообщений: 64

Artur1987_87 · 09-Дек-18 22:39 (спустя 21 день)

Почему выложено в разделе UHD? Это ведь Full HD, а не ультра...
[Профиль]  [ЛС] 

Man505

Стаж: 10 лет 3 месяца

Сообщений: 308

Man505 · 21-Фев-19 11:33 (спустя 2 месяца 11 дней)

Продолжительность неправильно указана. Написано 2:06:18, а на самом деле 2:16:18.
[Профиль]  [ЛС] 

child01

Стаж: 12 лет 3 месяца

Сообщений: 152

child01 · 21-Фев-19 21:33 (спустя 9 часов, ред. 21-Фев-19 21:33)

Кто мне разъяснит по вариантам скринов?
Source и Encode - исходник и то, что собственно мы качаем.
А Remastered тогда что? Ведь весь этот релиз - и есть новый UHD ремастер. Ремастер, в котором убрали поганую зелень. Значит вариант CtrlHD - старый вариант, где было много зелени. Ок.
Но почему тогда различаются тона в сорсе/энкоде и remastered?
Ремастер - новый холодноватый, CtrlHD - старый зелёный, а сорс/энкод - коричневатый (почему?!)
[Профиль]  [ЛС] 

meilei

Стаж: 5 лет 5 месяцев

Сообщений: 201

meilei · 06-Май-19 21:16 (спустя 2 месяца 12 дней, ред. 21-Май-19 01:33)

child01 писал(а):
76906956Кто мне разъяснит по вариантам скринов?
Remastered – является оригинальным Blu ray, который сделан из того же скана и ремастера, что и UHD, и продается вместе с UHD как дополнение.
По сути, картинка у Blu ray не должна отличаться от старшего собрата, кроме отсутствия HDR фишек.
Но тут в этом конкретном случаи Warner Bros перехитрил сам себя и подложил большущую свинью тем, у кого нет возможности смотреть UHD.
Картинка Blu ray настолько сильно отличается от UHD, что возникает ощущение, что это диски с разных сканов или ремастеров.
Там идут такие бешенные перепады в цветности и контрастности, что я аж за голову взялся, когда увидел (я купил трилогию UHD с Blu ray).
Появилось везде столько бирюзового (cyan) цвета, которого отродясь не было в фильме!
Я много раз смотрел „Матрицу“ в кинотеатре.
А Blu ray смотреть просто НЕВОЗМОЖНО!
Кодировщик, наверное, был под кайфом. Запустил программу кодировки с Dolby Vision в HD без соответствующих настроек и пошел бухать.
У меня есть еще одна претензия к 4К ремастеру фильма в целом.
Фишка от издателей типа в том, что ничего не делалось с цветопередачей и резкостью разных сцен. Типа – как на пленке снято, так и оставили.
Может кому то это будет и по душе. Но я думаю, что для UHD издания материал, когда разные сцены имеют разный цветовой баланс а тем более резкость – это не очень приемлемо.
Искусственно не зеленить, как это делали раньше – это отлично. Но сбалансировать цвета а особенно резкость – чтоб не было в одном кадре 4К, а в другом чуть ли не VHS – все таки могли.
Из этого следует просьба автору рипа (или кому другому).
Не могли бы вы сделать такие же рипы с UHD и других частей „Матрицы“?
Многие будут благодарны.
Дополнение.
Поставил себе в компьютере madVR, чтобы смотреть HDR видео на SDR мониторе.
Посмотрел „Матрицу“ в UHD.
Небо и земля даже в сравнении с этим рипом (что касается цветности и контрастности).
Никакой лишней бирюзы и скачков контраста (кроме натуральных пленочных) – 100% всё как в кино.
Даже меняющийся цветовой баланс между сценами не бросается в глаза, выглядит натурально и приемлемо.
Окончательный вывод.
Заводской Blu ray – полный шлак.
Рип не полностью передает настоящие цвета (зеленый бирюзит), не хватает контраста. Но рип безоговорочно лучше заводского Blu ray.
[Профиль]  [ЛС] 

miksyunya

Стаж: 1 месяц 10 дней

Сообщений: 20


miksyunya · 19-Май-19 06:28 (спустя 12 дней, ред. 19-Май-19 06:28)

Спасибо! шикарное качество! и не слишком зеленое и не слишком светлое!
Скажите пожалуйста, а как быть с 2 и 3 фильмами?
какие релизы качать?
уже второй час сижу пытаюсь разобраться, никак не пойму, там получается нет релизов в таком же качестве как тут?
выходит 2 и 3 часть лучше в Remastered качать?
[Профиль]  [ЛС] 

_GHS_

Стаж: 7 лет 7 месяцев

Сообщений: 319


_GHS_ · 31-Май-19 11:33 (спустя 12 дней)

BravoMas писал(а):
75989803Чей перевод более точно передает смысл фильма?
Лучший смысловой перевод Матрицы у Андрея Гаврилова. Все его переводы, пропущены через себя ЛИЧНО, через свое Осознание и внутреннее Понимание Сути того, что он видит и остро чувствует на экране. Это его природный Дар, помноженный на Желание и Умение, приправленное опытом и талантом
Именно с таким переводом купил VHS-кассету сразу после выхода фильма. Затем была вторая кассета, но с другим переводом…
- Позднее, были просмотрены различные DVD и HD варианты, в коих искался именно он - СМЫСЛ ПОНИМАНИЯ и Речевого ВЫРАЖЕНИЯ идеи фильма. Но, все они были далеки от совершенства, несостоятельны и примитивны
- Была оцифрована VHS кассета и моно перевод Гаврилова был добавлен в HD видео ряд (так было получено достойное видео с достойным - смысловым содержанием, но,.. увы – не звуком)
- Ещё позднее, удалось найти HD фильм с его переводом уже и в достойном техническом варианте. В окончательном виде в фильме оставил только 2 перевода (Гаврилова – для себя и внутреннего восприятия, много голоску – для друзей их внешней зрелищности)
Такая же история была с Мертвецом, да и с большинством других фильмов…
Все остальные бездумно-бездушные переводы (несмотря на их техническое превосходство звука над Смыслом) – без долгих раздумий были выброшены в мусорное ведро. Поскольку все они были подобны тщетным потугам полуграмотных школяров (весьма далеких от истинной сути понимания и смысла великолепного фильма), пытающихся из отдельных (знакомых им) букв алфавита механически сложить непонятные их разуму слова. При этом даже, не подозревая о том, что из этих слов должны быть сложены предложения, кои в свою очередь призваны соз-Дать в сознании зрителя мысли, кои привели бы его к пониманию всего увиденного и услышанного в кинофильме
Это так же безнадежно, как создавать великую симфонию, совершенно не имея при этом ни навыков, ни музыкального слуха...
К сожалению, перевод слов в лоб – не пригоден для кинематографа, а именно так сейчас озвучивается большинство фильмов, в коих он преподносится зрителю как неудобоваримая каша, кою даже проглотить не поперхнувшись, удается далеко не многим
Видео ряд – это только зримая часть фильма…
Смысловой перевод – его внутренняя основа, суть, фундамент Понимания, на котором строится и долгие годы продолжает стоять грандиозное Кино-Здание
Существует масса прекрасных фильмов, к сожалению, с плохой или ужасной картинкой, о недостатках которой после первых 15 минут просмотра забываешь, полностью погрузившись во внутреннюю канву действия, развертывающегося перед тобой на экране. И ключ к его пониманию – смысловой перевод
Но, найти хороший (нужный) перевод в приемлемом техническом качестве не так-то просто. Редко, когда это удается, но радость - безмерна. Несколько лет нахожусь в поиске нужных цифровых озвучек например, к фильмам: Короткое замыкание, Крикуны, Книга жизни, Начало. Моно оцифровки из личного архива с VHS – есть, но их качество,.. увы, порой… удручает. Но, все же лучше пожертвовать им, нежели смыслом…
Познавший вкус чистой воды, вряд ли с упоением будет продолжать пить из лужи…
Успеха
LAVScan
[Профиль]  [ЛС] 
 
Ответить
Loading...
Error