Автодилеры (Махинаторы) / Wheeler Dealers / Сезон 11 / Эпизоды 1-7 из 14 [2014, UK, Автошоу, HDTVRip, 720p, RUS/ENG]

Страницы:  1

Ответить
Автор
Сообщение

БэстЛайв

Стаж: 9 лет

Сообщений: 470

БэстЛайв · 07-Апр-15 06:56 (4 года 2 месяца назад)

Автодилеры (Махинаторы) / Wheeler Dealers / Сезон 11
Страна: UK
Жанр: Автошоу
Дата выпуска: 2014
Продолжительность: 45 мин.
Перевод: Русский
Описание: Автодилеры это британская телепередача производства Attaboy TV для канала Discovery, ведущими являются Майк Брюэр и механик Эд Чайна при содействии со стороны технического консультанта Пола Брэкли. Идея этого шоу в том, что Брюэр и Чайна находятся на миссии по спасению ремонтопригодных автомобилей энтузиастов, путем ремонта или иных улучшений конкретной модели с определенным бюджетом, а затем продают её новому владельцу.
Официальный список серий
Доп. информация: Первая часть, 11 сезона Махинаторов.
07.04.2015 - Раздача переоформлена
Автор рипа: C4TV
Семпл: http://multi-up.com/960403
Качество видео: HDTVRip 720p
Формат видео: MKV
Видео: MPEG4 Video (AVC); 1280x720p (16:9); 25.000 fps, 3 349 Kbps
Аудио: RUS AC3; 48000 Hz; 6 ch; 384 kbps (Discovery HD RUS 1-7 серия)
Аудио: ENG AC3; 48000 Hz; 6 ch; 384 kbps
MediaInfo
Wheeler.Dealers.S11E01.Ford.Fiesta.XR2.720p.Rus.Eng_BL.mkv
Format : Matroska
Format version : Version 4 / Version 2
File size : 1.27 GiB
Duration : 43mn 25s
Overall bit rate : 4 193 Kbps
Encoded date : UTC 2014-04-10 06:31:34
Writing application : mkvmerge v6.1.0 ('Old Devil') built on Mar 4 2013 09:10:42
Writing library : libebml v1.3.0 + libmatroska v1.4.0
Video
ID : 1
Format : AVC
Format/Info : Advanced Video Codec
Format profile : [email protected]
Format settings, CABAC : Yes
Format settings, ReFrames : 5 frames
Codec ID : V_MPEG4/ISO/AVC
Duration : 43mn 25s
Bit rate : 3 342 Kbps
Width : 1 280 pixels
Height : 720 pixels
Display aspect ratio : 16:9
Frame rate mode : Constant
Frame rate : 25.000 fps
Color space : YUV
Chroma subsampling : 4:2:0
Bit depth : 8 bits
Scan type : Progressive
Bits/(Pixel*Frame) : 0.145
Stream size : 1.01 GiB (80%)
Writing library : x264 core 142 r2409 d6b4e63
Encoding settings : cabac=1 / ref=5 / deblock=1:0:0 / analyse=0x3:0x113 / me=umh / subme=8 / psy=1 / psy_rd=1.00:0.00 / mixed_ref=1 / me_range=16 / chroma_me=1 / trellis=1 / 8x8dct=1 / cqm=0 / deadzone=21,11 / fast_pskip=1 / chroma_qp_offset=-2 / threads=12 / lookahead_threads=2 / sliced_threads=0 / nr=0 / decimate=1 / interlaced=0 / bluray_compat=0 / constrained_intra=0 / bframes=3 / b_pyramid=2 / b_adapt=2 / b_bias=0 / direct=3 / weightb=1 / open_gop=0 / weightp=2 / keyint=250 / keyint_min=25 / scenecut=40 / intra_refresh=0 / rc_lookahead=50 / rc=crf / mbtree=1 / crf=20.0 / qcomp=0.60 / qpmin=0 / qpmax=69 / qpstep=4 / ip_ratio=1.40 / aq=1:1.00
Default : Yes
Forced : No
Matrix coefficients : BT.709
Audio #1
ID : 2
Format : AC-3
Format/Info : Audio Coding 3
Mode extension : CM (complete main)
Format settings, Endianness : Big
Codec ID : A_AC3
Duration : 43mn 25s
Bit rate mode : Constant
Bit rate : 384 Kbps
Channel(s) : 6 channels
Channel positions : Front: L C R, Side: L R, LFE
Sampling rate : 48.0 KHz
Bit depth : 16 bits
Compression mode : Lossy
Stream size : 119 MiB (9%)
Title : Discovery RU [BL]
Language : Russian
Default : Yes
Forced : No
Audio #2
ID : 3
Format : AC-3
Format/Info : Audio Coding 3
Mode extension : CM (complete main)
Format settings, Endianness : Big
Codec ID : A_AC3
Duration : 43mn 25s
Bit rate mode : Constant
Bit rate : 384 Kbps
Channel(s) : 6 channels
Channel positions : Front: L C R, Side: L R, LFE
Sampling rate : 48.0 KHz
Bit depth : 16 bits
Compression mode : Lossy
Stream size : 119 MiB (9%)
Language : English
Default : No
Forced : No
Список серий, скриншоты
1. Ford Fiesta XR2

2. Porsche 993 Targa

3. Mazda RX-7

4. Citroen 2CV AZLP

5. Maserati 3200 GT

6. Chevrolet Camaro

7. Amphicar
Download
Для скачивания .torrent файлов необходима регистрация
Сайт не распространяет и не хранит электронные версии произведений, а лишь предоставляет доступ к создаваемому пользователями каталогу ссылок на торрент-файлы, которые содержат только списки хеш-сумм
[Профиль]  [ЛС] 

БэстЛайв

Стаж: 9 лет

Сообщений: 470

БэстЛайв · 07-Апр-15 07:09 (спустя 13 мин.)

Попытка восстановить Махинаторов. У кого осталась данная раздача на HDD присоединяйтесь. Торрент файл абсолютно не изменился.
[Профиль]  [ЛС] 

$BRAT$

Стаж: 10 лет 11 месяцев

Сообщений: 5

$BRAT$ · 08-Апр-15 00:55 (спустя 17 часов)

А куда они делись? За копирайты?
[Профиль]  [ЛС] 

sergbril

Стаж: 11 лет 2 месяца

Сообщений: 33


sergbril · 08-Апр-15 22:37 (спустя 21 час)

Спасибо огромное!
[Профиль]  [ЛС] 

гадёнка

Стаж: 7 лет 7 месяцев

Сообщений: 19


гадёнка · 09-Апр-15 02:22 (спустя 3 часа)

а будет новый сезон? где они США
[Профиль]  [ЛС] 

WTF1994

Стаж: 9 лет 3 месяца

Сообщений: 935


WTF1994 · 10-Апр-15 18:41 (спустя 1 день 16 часов)

БэстЛайв
Есть серии 11 сезона, записанные с нашего Discovery. Есть что-то из 3-4 сезона, и 7 сезон частично. Не знаю с какого сезона начали снимать в HD.
[Профиль]  [ЛС] 

andronii1

Стаж: 10 лет 7 месяцев

Сообщений: 30


andronii1 · 16-Июн-15 12:28 (спустя 2 месяца 5 дней)

Каких эпизодов не хватает?
Надо у себя посмотреть.
[Профиль]  [ЛС] 

BMWER

Стаж: 9 лет 5 месяцев

Сообщений: 32


BMWER · 22-Июл-15 23:12 (спустя 1 месяц 6 дней)

andronii1 писал(а):
68055539ronii1
нужны с 8 по 14 серии 11 сезона
[Профиль]  [ЛС] 
 
Ответить
Loading...
Error